<?xml version="1.0" standalone="no"?>
<!DOCTYPE svg PUBLIC "-//W3C//DTD SVG 1.1//EN" "http://www.w3.org/Graphics/SVG/1.1/DTD/svg11.dtd" >
<!--
2013-9-30: Created.
-->
<svg>
<metadata>
Created by iconfont
</metadata>
<defs>

<font id="iconfont" horiz-adv-x="1024" >
  <font-face
    font-family="iconfont"
    font-weight="500"
    font-stretch="normal"
    units-per-em="1024"
    ascent="896"
    descent="-128"
  />
    <missing-glyph />
    
    <glyph glyph-name="download" unicode="&#59021;" d="M135.377782 555.885765l277.111319 0L412.4891 830.342628l207.41905 0 0-274.457886 272.656867 0L513.970376 147.641851 135.377782 555.885765 135.377782 555.885765zM892.268258 145.226848l0-66.952878L136.666124 78.27397l0 66.952878L65.878918 145.226848l0-204.12912L136.666124-58.902272l755.603157 0 65.849754 0 0 204.12912L892.268258 145.226848 892.268258 145.226848zM892.268258 145.226848"  horiz-adv-x="1024" />

    
    <glyph glyph-name="zoom-out" unicode="&#59036;" d="M950.075-14.436l-225.921 221.773c123.199 146.698 115.857 366.528-22.075 504.482-145.758 145.751-382.898 145.751-528.647 0-145.752-145.745-145.752-382.87 0-528.615 135.794-135.787 350.91-145.037 497.546-27.789l227.045-222.879c13.304-13.055 34.675-12.864 47.736 0.447l4.758 4.84c13.057 13.306 12.86 34.681-0.442 47.741l0 0zM226.091 235.862c-116.713 116.708-116.713 306.595 0 423.301 116.712 116.713 306.604 116.713 423.323 0 116.68-116.706 116.68-306.593 0-423.289-116.72-116.72-306.611-116.72-423.323-0.012l0 0zM214.441 484.734l446.604 0 0-74.435-446.604 0 0 74.435zM214.441 484.734z"  horiz-adv-x="1024" />

    
    <glyph glyph-name="image" unicode="&#59218;" d="M896 704 128 704 128 64 896 64 896 704ZM1024 832 1024 832 1024-64 0-64 0 832 1024 832ZM832 128 192 128 192 256 384 576 647.008 256 832 384 832 320ZM640 544A3 3 2520 1 0 832 544 3 3 2520 1 0 640 544z"  horiz-adv-x="1024" />

    
    <glyph glyph-name="iconedit" unicode="&#58960;" d="M893.46655 451.99051l0-444.912046c0-35.100426-28.426423-63.558571-63.557548-63.558571L130.761648-56.480106c-35.068703 0-63.558571 28.459169-63.558571 63.558571L67.203076 706.225819c0 35.132148 28.489868 63.558571 63.558571 63.558571l444.911022 0 0-61.540611L128.77541 708.243779l0-701.165314 701.133591 0L829.909002 451.99051 893.46655 451.99051zM487.78397 229.659843l-201.912639-64.520479 64.490803 201.909569L487.78397 229.659843zM398.007271 412.085662l134.848221-134.808312 313.198212 313.199235L711.194226 725.274664 398.007271 412.085662zM935.921477 770.251018l-44.936445 44.938492c-24.827455 24.827455-65.049528 24.827455-89.876983 0l-43.530422-43.532469 134.808312-134.849244 43.535539 43.535539C960.752002 705.17079 960.752002 745.42254 935.921477 770.251018z"  horiz-adv-x="1024" />

    
    <glyph glyph-name="actualsize" unicode="&#58981;" d="M716.8 793.6L716.8 725.33333333 853.33333333 725.33333333 853.33333333 588.8 921.6 588.8 921.6 725.33333333 921.6 793.6ZM853.33333333 42.66666667000004L716.8 42.66666667000004 716.8-25.600000000000023 921.6-25.600000000000023 921.6 42.66666667000004 921.6 179.20000000000005 853.33333333 179.20000000000005ZM170.66666667 179.20000000000005L102.4 179.20000000000005 102.4 42.66666667000004 102.4-25.600000000000023 307.2-25.600000000000023 307.2 42.66666667000004 170.66666667 42.66666667000004ZM170.66666667 725.33333333L307.2 725.33333333 307.2 793.6 102.4 793.6 102.4 725.33333333 102.4 588.8 170.66666667 588.8ZM238.93333333 589.0047999999999l0-410.0096C238.93333333 141.85813333 269.38026667 110.93333332999998 306.9952 110.93333332999998l410.0096 0C754.14186667 110.93333332999998 785.06666667 141.38026666999997 785.06666667 178.99519999999995L785.06666667 589.0047999999999C785.06666667 626.14186667 754.61973333 657.06666667 717.0048 657.06666667L306.9952 657.06666667C269.85813333 657.06666667 238.93333333 626.6197333299999 238.93333333 589.0047999999999zM307.2 588.8l409.6 0 0-409.6L307.2 179.20000000000005 307.2 588.8z"  horiz-adv-x="1024" />

    
    <glyph glyph-name="copy" unicode="&#58908;" d="M704 256h256v-355.968c0-15.424-12.608-28.032-28.032-28.032h-455.936c-15.424 0-28.032 12.608-28.032 28.032v583.936c0 15.424 12.608 28.032 31.168 28.032h224.832v-256zM768 506.624v-186.624h192l-182.464 186.624h-9.536zM448 826.624v-122.624h128l-118.464 122.624h-9.536zM384 576h192v64h-192v192h-288.832c-18.56 0-31.168-12.608-31.168-28.032v-644.8c0-15.424 12.608-28.032 28.032-28.032h291.968v444.864z"  horiz-adv-x="1024" />

    
    <glyph glyph-name="zoom-in" unicode="&#58880;" d="M968.842667-12.501333L726.698667 229.642667A382.293333 382.293333 0 0 1 810.666667 469.333333C810.666667 681.408 638.752 853.333333 426.666667 853.333333 214.592 853.333333 42.666667 681.408 42.666667 469.333333s171.925333-384 384-384c90.666667 0 173.994667 31.413333 239.690666 83.978667l242.144-242.144a42.666667 42.666667 0 0 1 60.341334 60.330667zM426.666667 170.666667c-164.949333 0-298.666667 133.717333-298.666667 298.666666s133.717333 298.666667 298.666667 298.666667c164.96 0 298.666667-133.717333 298.666666-298.666667S591.626667 170.666667 426.666667 170.666667z m170.666666 298.666666a42.666667 42.666667 0 0 0-42.666666-42.666666h-85.333334v-85.333334a42.666667 42.666667 0 0 0-85.333333 0v85.333334h-85.333333a42.666667 42.666667 0 0 0 0 85.333333h85.333333v85.333333a42.666667 42.666667 0 0 0 85.333333 0v-85.333333h85.333334a42.666667 42.666667 0 0 0 42.666666-42.666667z"  horiz-adv-x="1024" />

    
    <glyph glyph-name="clear" unicode="&#59136;" d="M791.04 583.68H768V0h-76.8V583.68h-128V0h-76.8V583.68h-128V0h-76.8V583.68H128V-25.6c0-56.32 46.08-102.4 104.96-102.4h558.08c58.88 0 104.96 46.08 104.96 102.4V583.68c0 5.12-46.08 0-104.96 0M947.2 768h-230.4V829.44C716.8 867.84 652.8 896 614.4 896h-204.8c-38.4 0-102.4-28.16-102.4-66.56V768H76.8c-28.16 0-51.2-23.04-51.2-51.2s23.04-51.2 51.2-51.2h870.4c28.16 0 51.2 23.04 51.2 51.2s-23.04 51.2-51.2 51.2M614.4 768h-204.8V793.6h204.8v-25.6m0 0z"  horiz-adv-x="1024" />

    
    <glyph glyph-name="flow-line" unicode="&#58976;" d="M563.2 188.2112V579.7888A122.624 122.624 0 0 1 634.88 691.2a122.88 122.88 0 1 1-245.76 0c0-49.5104 29.4912-91.9552 71.68-111.4112v-391.6288A122.5216 122.5216 0 0 1 389.12 76.8a122.88 122.88 0 1 1 245.76 0c0 49.5104-29.44 91.9552-71.68 111.4112zM512 762.112a70.8608 70.8608 0 1 0 0-141.7216 70.8608 70.8608 0 0 0 0 141.7216z m0-756.224a70.912 70.912 0 1 0 0 141.824 70.912 70.912 0 0 0 0-141.824z"  horiz-adv-x="1024" />

    
    <glyph glyph-name="redo" unicode="&#59158;" d="M999.551 549.05c13.299 0 24-10.8 24.1-24v-358c0-17.7-14.301-32-32-32h-358.1c-6.4 0-12.5 2.5-17 7-9.4 9.3-9.4 24.5 0 33.9l127 127c-82.201 101.8-208 167-349.001 167-170.3 0-318.4-95-394.2-235 45.7 227 246.2 398 486.7 398 160.101 0 302.399-75.7 393.2-193.3l102.301 102.4c4.5 4.5 10.599 7 17 7z"  horiz-adv-x="1024" />

    
    <glyph glyph-name="undo" unicode="&#59162;" d="M41.353 542.029a23.998 23.998 0 0 1-16.97 7.029c-13.255 0-24-10.744-24-24V167c0-17.673 14.327-32 32-32h358.06a24 24 0 0 1 16.969 7.029c9.373 9.373 9.373 24.568 0 33.941L280.418 302.965C362.539 404.832 488.35 470 629.383 470c170.332 0 318.462-95.059 394.234-235.02C977.931 462.016 777.375 633 536.883 633c-160.045 0-302.403-75.725-393.2-193.3L41.353 542.029z"  horiz-adv-x="1024" />

    
    <glyph glyph-name="fit" unicode="&#59339;" d="M640 608V800c0 19.2 12.8 32 32 32s32-12.8 32-32v-160h160c19.2 0 32-12.8 32-32s-12.8-32-32-32h-192c-6.4 0-12.8 0-19.2 6.4h-6.4c0 12.8-6.4 19.2-6.4 25.6zM288 832c-19.2 0-32-12.8-32-32v-160H96c-19.2 0-32-12.8-32-32s12.8-32 32-32h192c6.4 0 12.8 0 19.2 6.4h6.4c6.4 6.4 6.4 12.8 6.4 19.2v192C320 819.2 307.2 832 288 832z m576-576h-192c-6.4 0-12.8 0-19.2-6.4h-6.4c-6.4-6.4-6.4-12.8-6.4-19.2v-192c0-19.2 12.8-32 32-32s32 12.8 32 32V192h160c19.2 0 32 12.8 32 32s-12.8 32-32 32z m-550.4-12.8c-6.4 6.4-6.4 6.4 0 0-12.8 6.4-19.2 12.8-25.6 12.8H96c-19.2 0-32-12.8-32-32s12.8-32 32-32h160v-160c0-19.2 12.8-32 32-32s32 12.8 32 32v192c0 6.4-6.4 12.8-6.4 19.2zM480 544c-70.4 0-128-57.6-128-128s57.6-128 128-128 128 57.6 128 128-57.6 128-128 128z"  horiz-adv-x="1024" />

    
    <glyph glyph-name="to-front" unicode="&#59340;" d="M768 300.8c-6.4 12.8-12.8 19.2-25.6 19.2l-102.4 12.8 115.2 102.4c6.4 6.4 12.8 19.2 6.4 25.6-6.4 12.8-12.8 19.2-25.6 19.2l-102.4 12.8 115.2 102.4c6.4 6.4 12.8 19.2 6.4 25.6-6.4 12.8-12.8 19.2-25.6 19.2L358.4 697.6c-6.4 0-19.2 0-25.6-6.4l-320-230.4c-6.4-6.4-12.8-19.2-12.8-25.6 0-12.8 12.8-19.2 19.2-19.2l115.2-25.6-121.6-89.6c-6.4-6.4-12.8-19.2-12.8-25.6 0-12.8 12.8-19.2 19.2-19.2l115.2-25.6-121.6-89.6c-6.4-6.4-12.8-19.2-12.8-25.6 0-12.8 12.8-19.2 19.2-19.2l390.4-96c6.4 0 19.2 0 25.6 6.4l307.2 268.8c25.6 6.4 25.6 19.2 25.6 25.6zM217.6 377.6l204.8-51.2c6.4 0 19.2 0 25.6 6.4l134.4 121.6 83.2-12.8L416 224 96 300.8l121.6 76.8z m204.8-320l-320 76.8 108.8 76.8L416 160c6.4 0 19.2 0 25.6 6.4L576 288l83.2-12.8-236.8-217.6z m473.6 448l140.8-179.2h-96c-6.4-115.2-76.8-211.2-179.2-262.4 51.2 70.4 83.2 153.6 83.2 249.6v12.8h-96l147.2 179.2z"  horiz-adv-x="1036" />

    
    <glyph glyph-name="to-back" unicode="&#59341;" d="M729.6 320l-96 12.8 115.2 102.4c6.4 6.4 12.8 19.2 6.4 25.6 0 12.8-12.8 19.2-25.6 19.2l-96 12.8 115.2 102.4c6.4 6.4 12.8 19.2 6.4 25.6 0 12.8-12.8 19.2-25.6 19.2L364.8 697.6c-6.4 0-12.8 0-19.2-6.4l-320-230.4c-6.4-6.4-12.8-19.2-12.8-25.6 0-12.8 12.8-19.2 19.2-19.2l108.8-25.6-121.6-89.6c-6.4-6.4-12.8-19.2-12.8-25.6s12.8-19.2 19.2-19.2l108.8-25.6-121.6-89.6c-6.4-6.4-12.8-19.2-12.8-25.6 0-12.8 12.8-19.2 19.2-19.2l384-89.6c6.4 0 19.2 0 25.6 6.4l300.8 268.8c6.4 6.4 12.8 19.2 6.4 25.6 12.8 6.4 6.4 12.8-6.4 12.8zM364.8 646.4l300.8-44.8L416 384l-313.6 76.8 262.4 185.6z m-147.2-268.8l204.8-51.2c6.4 0 19.2 0 25.6 6.4l134.4 121.6 83.2-12.8L416 224l-313.6 76.8 115.2 76.8z m723.2-134.4h96L896 64l-140.8 179.2h96V256c0 96-32 179.2-83.2 249.6 102.4-51.2 172.8-153.6 172.8-262.4z"  horiz-adv-x="1036" />

    
    <glyph glyph-name="roi-select" unicode="&#59342;" d="M64 704h64v-64H64V704z m0-128h64v-64H64v64z m0-128h64v-64H64v64z m0-128h64v-64H64v64z m0-128h64v-64H64v64zM64 768V832h64v-64H64z m128 0V832h64v-64H192z m128 0V832h64v-64h-64z m128 0V832h64v-64h-64z m128 0V832h64v-64h-64z m128 0V832h64v-64h-64z m128 64h64v-64h-64V832z m0-128h64v-64h-64V704z m0-128h64v-64h-64v64z m0-128h64v-64h-64v64z m0-128h64v-64h-64v64zM64 0v64h64v-64H64z m128 0v64h64v-64H192z m128 0v64h64v-64h-64z m128 0v64h64v-64h-64z m384 64v128h64v-128h128v-64h-128v-128h-64v128h-128v64h128z m-256-64v64h64v-64h-64z m-128 576v-64h256v64h-256z m0 64h256c38.4 0 64-25.6 64-64v-64c0-38.4-25.6-64-64-64h-256c-38.4 0-64 25.6-64 64v64c0 38.4 25.6 64 64 64zM256 320v-64h256v64H256z m0 64h256c38.4 0 64-25.6 64-64v-64c0-38.4-25.6-64-64-64H256c-38.4 0-64 25.6-64 64v64c0 38.4 25.6 64 64 64z"  horiz-adv-x="1024" />

    
    <glyph glyph-name="json" unicode="&#58915;" d="M921.6 716.8L798.72 844.8c-30.72 30.72-76.8 51.2-117.76 51.2H256c-40.96 0-71.68-35.84-71.68-71.68v-353.28h56.32V824.32c0 10.24 5.12 15.36 15.36 15.36h435.2v-235.52h225.28v-660.48c0-10.24-5.12-15.36-15.36-15.36H256c-10.24 0-15.36 5.12-15.36 15.36v107.52H184.32v-102.4c0-40.96 30.72-76.8 71.68-76.8h645.12c40.96 0 71.68 35.84 71.68 71.68V568.32c-5.12 51.2-20.48 102.4-51.2 148.48z m-174.08-61.44V803.84c5.12 0 5.12-5.12 10.24-10.24l128-128 10.24-10.24h-148.48zM798.72 455.68H92.16c-20.48 0-35.84-20.48-35.84-40.96v-276.48c0-20.48 15.36-40.96 40.96-40.96h701.44c20.48 0 40.96 15.36 40.96 40.96V414.72c-5.12 20.48-20.48 40.96-40.96 40.96zM225.28 368.64v-133.12c0-15.36-5.12-30.72-15.36-40.96-10.24-10.24-25.6-15.36-40.96-15.36-10.24 0-20.48 0-30.72 5.12v35.84h20.48c5.12 0 10.24 0 15.36 5.12 5.12 0 5.12 5.12 5.12 5.12v143.36h46.08z m168.96-40.96l-35.84-10.24c-5.12 15.36-15.36 25.6-30.72 20.48-15.36 0-25.6-5.12-25.6-15.36 0-5.12 0-10.24 5.12-10.24 5.12-5.12 15.36-5.12 20.48-10.24 15.36 0 30.72-5.12 40.96-10.24 10.24-5.12 15.36-10.24 20.48-20.48 5.12-10.24 10.24-20.48 10.24-30.72 0-15.36-5.12-30.72-20.48-46.08-15.36-10.24-35.84-15.36-56.32-15.36-20.48 0-35.84 5.12-51.2 15.36-15.36 5.12-25.6 20.48-25.6 35.84l40.96 10.24c5.12-15.36 20.48-30.72 40.96-25.6 10.24 0 15.36 0 20.48 5.12 5.12 5.12 5.12 10.24 5.12 15.36 0 5.12 0 10.24-5.12 15.36-10.24 5.12-15.36 5.12-25.6 10.24-20.48 5.12-35.84 10.24-51.2 20.48-10.24 5.12-15.36 15.36-15.36 30.72s5.12 30.72 20.48 40.96c15.36 10.24 30.72 20.48 51.2 15.36 25.6 5.12 56.32-10.24 66.56-40.96z m102.4-148.48c-25.6 0-46.08 10.24-56.32 30.72-15.36 20.48-20.48 46.08-20.48 71.68 0 25.6 5.12 51.2 20.48 66.56 15.36 20.48 35.84 30.72 61.44 25.6 25.6 0 46.08-10.24 61.44-30.72 15.36-20.48 20.48-40.96 20.48-66.56s-5.12-51.2-20.48-71.68c-20.48-15.36-40.96-25.6-66.56-25.6z m0 158.72c-20.48 0-30.72-20.48-30.72-61.44s10.24-61.44 35.84-61.44c20.48 0 30.72 20.48 30.72 61.44s-10.24 61.44-35.84 61.44z m250.88 30.72V179.2h-35.84l-71.68 128V179.2h-30.72v189.44h46.08l66.56-112.64v107.52l25.6 5.12z"  horiz-adv-x="1024" />

    
    <glyph glyph-name="fullscreen" unicode="&#58952;" d="M704 480l188.2 184.4 99.8-99.8V864H704l88.4-96-180.4-192 92-96z m-96-288l184.4-188.2-100-99.8H992V192l-96-88.4-192 180.4-96-92z m-288 96l-188.2-184.4-99.8 100V-96h288l-88.4 96 180.4 192-92 96z m96 288l-184.4 188.2 100 99.8H32v-288l96 88.4 192-180.4 96 92z"  horiz-adv-x="1024" />

    
    <glyph glyph-name="broken" unicode="&#59821;" d="M880.71104 160a144.096 144.096 0 0 1-134.08-95.008L746.31104 64h-185.6V800H279.75104c-20.352 56.416-73.44 96-135.776 96A144 144 0 1 1 279.43104 703.008L279.75104 704h184.96v-732.8h279.68c19.424-58.08 73.344-99.2 136.864-99.2a144 144 0 0 1 0 288h-0.576 0.032zM144.71104 694.4a57.6 57.6 0 1 0 57.6 57.6 57.6 57.6 0 0 0-57.6-57.6z m736-736a57.6 57.6 0 1 0 57.6 57.6 57.6 57.6 0 0 0-57.6-57.6z"  horiz-adv-x="1025" />

    
    <glyph glyph-name="curve" unicode="&#59824;" d="M927.488273 152.021587V320.758959c0 264.73871-214.628824 479.367534-479.367534 479.367534H279.383367c-20.325183 56.341664-73.343233 95.873507-135.597097 95.873507A143.81026 143.81026 0 1 1 279.063788 703.262293L279.383367 704.252986H448.120739c211.784577 0 383.494028-171.709451 383.494027-383.494027v-169.376529c-56.341664-20.325183-95.873507-73.343233-95.873506-135.597097a143.81026 143.81026 0 1 1 192.737706 135.277518L927.488273 151.38243zM144.5213 694.665636a57.524104 57.524104 0 1 0 57.524104 57.524104 57.524104 57.524104 0 0 0-57.524104-57.524104z m735.03022-735.03022a57.524104 57.524104 0 1 0 57.524104 57.524104 57.524104 57.524104 0 0 0-57.524104-57.524104z"  horiz-adv-x="1024" />

    
    <glyph glyph-name="paste" unicode="&#59747;" d="M320 528c0 61.758 50.244 112 112 112h272V784c0 26.51-21.49 48-48 48h-161.22C472.612 870.22 431.274 896 384 896s-88.612-25.78-110.78-64H112C85.49 832 64 810.51 64 784v-672c0-26.51 21.49-48 48-48h208V528z m64 288c26.51 0 48-21.49 48-48s-21.49-48-48-48-48 21.49-48 48 21.49 48 48 48z m368-496h208v-400c0-26.51-21.49-48-48-48H432c-26.51 0-48 21.49-48 48V528c0 26.51 21.49 48 48 48h272v-208c0-26.4 21.6-48 48-48z m208 76.118V384h-192v192h12.118a48 48 0 0 0 33.94-14.058l131.882-131.882a48.004 48.004 0 0 0 14.06-33.942z"  horiz-adv-x="1024" />

    
    <glyph glyph-name="group" unicode="&#59669;" d="M912 75.9V692.1c28 9.9 48 36.6 48 67.9 0 39.8-32.2 72-72 72-31.3 0-58-20-67.9-48H203.9C194 812 167.3 832 136 832c-39.8 0-72-32.2-72-72 0-31.3 20-58 48-67.9v-616.2C84 66 64 39.3 64 8c0-39.8 32.2-72 72-72 31.3 0 58 20 67.9 48h616.2c9.9-28 36.6-48 67.9-48 39.8 0 72 32.2 72 72 0 31.3-20 58-48 67.9zM888 784c13.3 0 24-10.7 24-24s-10.7-24-24-24-24 10.7-24 24 10.7 24 24 24zM136-16c-13.3 0-24 10.7-24 24s10.7 24 24 24 24-10.7 24-24-10.7-24-24-24z m0 752c-13.3 0-24 10.7-24 24s10.7 24 24 24 24-10.7 24-24-10.7-24-24-24z m704-680H184V712h656v-656z m48-72c-13.3 0-24 10.7-24 24s10.7 24 24 24 24-10.7 24-24-10.7-24-24-24zM288 422h448c8.8 0 16 7.2 16 16V614c0 8.8-7.2 16-16 16H288c-8.8 0-16-7.2-16-16v-176c0-8.8 7.2-16 16-16z m56 136h336v-64H344v64zM288 138h448c8.8 0 16 7.2 16 16V330c0 8.8-7.2 16-16 16H288c-8.8 0-16-7.2-16-16v-176c0-8.8 7.2-16 16-16z m56 136h336v-64H344v64z"  horiz-adv-x="1024" />

    
    <glyph glyph-name="ungroup" unicode="&#59671;" d="M736 346H288c-8.8 0-16-7.2-16-16v-176c0-8.8 7.2-16 16-16h448c8.8 0 16 7.2 16 16V330c0 8.8-7.2 16-16 16z m-56-136H344v64h336v-64zM888 80c-39.8 0-72-32.2-72-72s32.2-72 72-72 72 32.2 72 72-32.2 72-72 72z m0-96c-13.3 0-24 10.7-24 24s10.7 24 24 24 24-10.7 24-24-10.7-24-24-24zM736 630H288c-8.8 0-16-7.2-16-16v-176c0-8.8 7.2-16 16-16h448c8.8 0 16 7.2 16 16V614c0 8.8-7.2 16-16 16z m-56-136H344v64h336v-64zM888 688c39.8 0 72 32.2 72 72s-32.2 72-72 72-72-32.2-72-72 32.2-72 72-72z m0 96c13.3 0 24-10.7 24-24s-10.7-24-24-24-24 10.7-24 24 10.7 24 24 24zM136 832c-39.8 0-72-32.2-72-72s32.2-72 72-72 72 32.2 72 72-32.2 72-72 72z m0-96c-13.3 0-24 10.7-24 24s10.7 24 24 24 24-10.7 24-24-10.7-24-24-24zM136 80c-39.8 0-72-32.2-72-72s32.2-72 72-72 72 32.2 72 72-32.2 72-72 72z m0-96c-13.3 0-24 10.7-24 24s10.7 24 24 24 24-10.7 24-24-10.7-24-24-24z"  horiz-adv-x="1024" />

    
    <glyph glyph-name="arrow-dropdown" unicode="&#58881;" d="M512 107.51958124999999l-377.06160075 377.06160074L222.88801761 572.5308003600001 512 283.41881802 801.11198239 572.5308003600001 889.06160075 484.58118199z"  horiz-adv-x="1024" />

    


  </font>
</defs>
</svg>
